Главная | Регистрация | Вход Приветствую Вас Бродяга | RSS
[ Новые сообщения · Участники · Правила форума · Поиск · RSS ]
  • Страница 1 из 1
  • 1
Форум » Разное со всего Империума » Фильмы » 4.3.2.1 / 4321 / 4.3.2.1 (HDRip) (Великобритания, триллер, криминал)
4.3.2.1 / 4321 / 4.3.2.1 (HDRip)
MisterNurglДата: Пятница, 08.10.2010, 06:41 | Сообщение # 1
Великий нагибатор
Группа: Космодесант
Сообщений: 6217
Награды: 30
Репутация: 86
Статус: Offline

В то время как Джоанн приходится работать в супермаркете, остальные поглощены своими приключениями: Кассандра стремится в Нью-Йорк, чтобы встретиться с другом из Интернета; Кэррис борется за права женщин, а Шэннон направляется на встречу с отцом. Но сама судьба сталкивает их отдельные миры и друг друга. У 4-х девушек всего 3 дня, которые они никогда не забудут и 2 города, которые они посетят, то есть… если они выживут.

Название: 4.3.2.1 / 4.3.2.1
Страна: Великобритания
Студия: Atlantic Swiss Productions
Жанр: триллер, криминал
Год выпуска: 2010
Продолжительность: 01:56:43
Перевод: Любительский (двухголосый закадровый)
Субтитры: нет
Оригинальная аудиодорожка: Английский
Режиссер: Ноэль Кларк / Noel Clarke, Марк Дэвис / Mark Davis
В ролях: Эмма Робертс, Ноэль Кларк, Тэмсин Эгертон, Офелия Ловибонд, Шаника Уоррен-Мерленд, Джейкоб Андерсон, Николас Бриггс, Натали Бриттон, Gregg Chillin, Линзи Коккер..

IMDb 6.0/10 (539 votes)

Скриншоты:





Бюджет: $4 600 000

Тип релиза: HDRip, источник: 4.3.2.1.1080p.BluRay.x264-ALLiANCE
Контейнер: AVI
Видео: 720x304 (2.35:1), 23.976 fps, XVID ~1399 kbps avg, 0.264 bit/pixel
Аудио : Русский 48 kHz, AC3, 6 ch, 384.00 kbps Constant
Аудио 2: Английский 48 kHz, AC3, 6 ch, 448.00 kbps Constant (отделным файлом)

Доступно только для пользователей

MediaInfo

General
Complete name : 4.3.2.1.2010.L2.HDRip.avi
Format : AVI
Format/Info : Audio Video Interleave
File size : 1.46 GiB
Duration : 1h 56mn
Overall bit rate : 1 792 Kbps
Writing application : VirtualDubModRus 1.5.10.2 (build 2542/release)
Writing library : VirtualDubMod build 2542/release
Video
ID : 0
Format : MPEG-4 Visual
Format profile : Advanced Simple@L5
Format settings, BVOP : Yes
Format settings, QPel : No
Format settings, GMC : No warppoints
Format settings, Matrix : Custom
Muxing mode : Packed bitstream
Codec ID : XVID
Codec ID/Hint : XviD
Duration : 1h 56mn
Bit rate : 1 399 Kbps
Width : 720 pixels
Height : 304 pixels
Display aspect ratio : 2.35:1
Frame rate : 23.976 fps
Color space : YUV
Chroma subsampling : 4:2:0
Bit depth : 8 bits
Scan type : Progressive
Bits/(Pixel*Frame) : 0.267
Stream size : 1.14 GiB (78%)
Writing library : XviD 1.2.1 (UTC 2008-12-04)
Audio
ID : 1
Format : AC-3
Format/Info : Audio Coding 3
Mode extension : CM (complete main)
Codec ID : 2000
Duration : 1h 56mn
Bit rate mode : Constant
Bit rate : 384 Kbps
Channel(s) : 6 channels
Channel positions : Front: L C R, Side: L R, LFE
Sampling rate : 48.0 KHz
Bit depth : 16 bits
Stream size : 321 MiB (21%)
Alignment : Split accross interleaves
Interleave, duration : 42 ms (1.00 video frame)
Interleave, preload duration : 500 ms

Файл: AVI (1,45 ГБ)

Доступно только для пользователей

Оригинальная дорожка AC3 (374 МБ): Доступно только для пользователей

 
Форум » Разное со всего Империума » Фильмы » 4.3.2.1 / 4321 / 4.3.2.1 (HDRip) (Великобритания, триллер, криминал)
  • Страница 1 из 1
  • 1
Поиск:
Авторское право на игру и использованные в ней материалы принадлежат Мастеру Игрушек.
Любое использование материалов сайта возможно только с разрешения его администрации!
Все права защищены. © 2022 // design by Мастер Игрушек
* * * * *