Главная | Регистрация | Вход Приветствую Вас Бродяга | RSS
[ Новые сообщения · Участники · Правила форума · Поиск · RSS ]
  • Страница 1 из 1
  • 1
Форум » Games Workshop » Warhammer на компьютере и видео » Ultramarines A Warhammer 40,000 Movie с русскими субтитрами (Warhammer 40 000)
Ultramarines A Warhammer 40,000 Movie с русскими субтитрами
MisterNurglДата: Суббота, 25.12.2010, 20:04 | Сообщение # 1
Великий нагибатор
Группа: Космодесант
Сообщений: 6217
Награды: 30
Репутация: 86
Статус: Offline

Это 41-ое тысячелетие, дикое и мрачное темное будущее, время, в котором Человечество борется за выживание в галактике, расколотой кровопролитием и разрушением.
Человечество находится на грани исчезновения, окружаемое со всех сторон ненавистными врагами — чужими, мутантами и предателями. И только колоссальное число Имперских Гвардейцев и несгибаемая сила Космических Десантников, генетически усовершенствованных элитных воинов,способно дать отпор пришельцам. Из всех древних и почетных орденов Космического Десанта, Ультрамарины — возможно, самый могущественный, уважаемый и бесстрашный. Чистые в помыслах и верности Императору, Ультрамарины считаются наиболее мобильными, строгими, дисциплинированными и бесстрашными воинами.
Капитан Северус (Severus), почитаемый ветеран-воин с внушительной репутацией, получил безотлагательную просьбу о помощи с далекой планеты Митрон (Mithron).
Ничем не примечательная, Митрон имеет только одну стратегически важную ценность — святыню, защищавшуюся множество раз бесчисленными поколениями Космических Десантников из ордена Имперских Кулаков. Какая напасть могла заставить их просить помощи?

Оригинальное название: Ultramarines: A Warhammer 40,000 Movie
Слоган: In the grim darkness of the far future there is only war
Производство: Великобритания; Codex Pictures, Good Story Productions, POP6
Режиссёр: Мартин Пик / Martyn Pick
Роли озвучивали: Теренс Стамп, Син Пертви, Джон Харт, Дональд Самптер
Жанр: мультфильм, фантастика
Категории: Фильмы/Видео » Мультипликация » Мультфильмы
Продолжительность: 01:16:28
Год: 2010
Перевод: Оригинал
Субтитры: Русские, английские
Файл: 1,34 ГБ

Скриншоты:








Качество: DVDRip
Формат: AVI
Видео: 720x400 (16:9), 23.976 fps, XviD MPEG-4 2077 kbps, 0.301 bit/pixel
Аудио: 48 kHz, AC3 Dolby Digital, 6 ch, 448.00 kbps
Формат субтитров: softsub (SRT)

Доступно только для пользователей

MediaInfo

General
Complete name : E:\Ultramarines RIP\Ultramarines DVDRip\Ultramarines.avi
Format : AVI
Format/Info : Audio Video Interleave
File size : 1.35 GiB
Duration : 1h 16mn
Overall bit rate : 2 534 Kbps
Writing application : VirtualDubMod 1.5.10.2 (build 2540/release)
Writing library : VirtualDubMod build 2540/release
Video
ID : 0
Format : MPEG-4 Visual
Format profile : Advanced Simple@L5
Format settings, BVOP : Yes
Format settings, QPel : No
Format settings, GMC : No warppoints
Format settings, Matrix : Default (MPEG)
Codec ID : XVID
Codec ID/Hint : XviD
Duration : 1h 16mn
Bit rate : 2 077 Kbps
Width : 720 pixels
Height : 400 pixels
Display aspect ratio : 16:9
Frame rate : 23.976 fps
Color space : YUV
Chroma subsampling : 4:2:0
Bit depth : 8 bits
Scan type : Progressive
Compression mode : Lossy
Bits/(Pixel*Frame) : 0.301
Stream size : 1.11 GiB (82%)
Writing library : XviD 1.2.1 (UTC 2008-12-04)
Audio
ID : 1
Format : AC-3
Format/Info : Audio Coding 3
Mode extension : CM (complete main)
Codec ID : 2000
Duration : 1h 16mn
Bit rate mode : Constant
Bit rate : 448 Kbps
Channel(s) : 6 channels
Channel positions : Front: L C R, Side: L R, LFE
Sampling rate : 48.0 KHz
Bit depth : 16 bits
Compression mode : Lossy
Stream size : 245 MiB (18%)
Alignment : Split accross interleaves
Interleave, duration : 42 ms (1.00 video frame)
Interleave, preload duration : 500 ms

Доступно только для пользователей

 
MikaereДата: Суббота, 25.12.2010, 23:47 | Сообщение # 2
Необходимое Зло
Группа: Послушники
Сообщений: 485
Награды: 10
Статус: Offline
Круто, да. Спасибо, сейчас скачаю и наслаждюсь(?) .

П.С. Хрен им, а не мои доллары. Хотел купить когда в первый день они окрылись, но у них система покупки через задницу была сделана.

 
SAIDДата: Воскресенье, 26.12.2010, 04:02 | Сообщение # 3
Брат-Терминатор
Группа: Еретики
Сообщений: 40
Награды: 4
Репутация: 2
Статус: Offline
По данному поводу нарыл вот замечательный маленький рассказик... Поржал от души. http://juriskhan.livejournal.com/145068.html
 
ShadowДата: Воскресенье, 26.12.2010, 17:49 | Сообщение # 4
VIP контрибьютер
Группа: Инквизиторы
Сообщений: 719
Награды: 9
Репутация: 21
Статус: Offline
Качал больше 6 часов через канал для халявщиков, но как оказалось не зря. Отличный фильм.
Спасибо огромное!!!


Всё будет так, как мы хотим.
На случай разных бед,
У нас есть пулемёт «Максим»,
У них «Максима» нет.
 
FerrusДата: Вторник, 04.01.2011, 13:25 | Сообщение # 5
Брат-Капитан
Группа: Инквизиторы
Сообщений: 173
Награды: 4
Репутация: 11
Статус: Offline
отличная вещица!

Мiръ полонъ ошибокъ и лживыхъ слуховъ. Жизнь слишкомъ коротка, чтобы опровергать ихъ всѣ.©
 
Форум » Games Workshop » Warhammer на компьютере и видео » Ultramarines A Warhammer 40,000 Movie с русскими субтитрами (Warhammer 40 000)
  • Страница 1 из 1
  • 1
Поиск:
Авторское право на игру и использованные в ней материалы принадлежат Мастеру Игрушек.
Любое использование материалов сайта возможно только с разрешения его администрации!
Все права защищены. © 2022 // design by Мастер Игрушек
* * * * *