Главная | Регистрация | Вход Приветствую Вас Бродяга | RSS
[ Новые сообщения · Участники · Правила форума · Поиск · RSS ]
  • Страница 1 из 1
  • 1
Форум » Разное со всего Империума » Фильмы » Кровавая ночь: легенда о Мэри Хэчет (HDRip) (2009, США, ужасы, триллер)
Кровавая ночь: легенда о Мэри Хэчет (HDRip)
MisterNurglДата: Среда, 20.10.2010, 04:00 | Сообщение # 1
Великий нагибатор
Группа: Космодесант
Сообщений: 6217
Награды: 30
Репутация: 86
Статус: Offline

Кровавая ночь: легенда о Мэри Хэчет / Blood Night The Legend Of Mary Hatchet (Фрэнк Сабателла / Frank Sabatella) [2009, США, ужасы, триллер, HDRip]

В 1978 году маленькая Мэри сходит с ума после того, как она жестокого убила своих родителей. Она была заперта в психиатрическую лечебницу на долгие годы, пока однажды, ее не изнасиловал один из охранников. После того, как родился ее мертвый ребенок, она нашла способ убежать из лечебницы ,вырезав по пути почти всех работников. На пути к бегству полиция выпускает в нее несколько обойм, прежде чем Мэри умирает. Этот случай породил праздник под названием Кровавая Ночь, когда молодежь собирается вместе, чтоб предаться разгульному веселью. Но дух Мэри возвращается в мир живых...

Название: Кровавая ночь: легенда о Мэри Хэчет / Blood Night The Legend Of Mary Hatchet
Страна: США
Жанр: ужасы, триллер
Год выпуска: 2009
Продолжительность: 01:24:26
Перевод: Любительский(одноголосый) Хихикающий Доктор
Cубтитры: нет
Режиссер: Фрэнк Сабателла / Frank Sabatella
В ролях: Нат Душку, Саманта Фачи, Даниэль Харрис, Билл Моусли, Саманта Джейкобс, Энтони Маркс, Нэнси Малео, Алисса Дин

Доп. информация:

IMDB 5.4/10 (276 votes)
КиноПоиск 8.750 / 4

Скриншоты:









Качество видео: HDRip
Формат видео: AVI
Видео кодек: XviD
Аудио кодек: AC3
Видео: 720x304 (2.37:1), 23.976, 1481 kb/s, 0.282 bits/pixel
Аудио: 48 Hz, АС3 Dolby Digital, 192 kb/s (96/ch, stereo)

MediaInfo

General
Complete name : D:\Users\Downloads\Blood.Night.The.Legend.Of.Mary.Hatchet.avi
Format : AVI
Format/Info : Audio Video Interleave
File size : 1 014 MiB
Duration : 1h 24mn
Overall bit rate : 1 679 Kbps
Writing application : VirtualDubMod 1.5.10.3 (build 2550/release)
Writing library : VirtualDubMod build 2550/release
Video
Format : MPEG-4 Visual
Format profile : Streaming Video@L1
Format settings, BVOP : Yes
Format settings, QPel : No
Format settings, GMC : No warppoints
Format settings, Matrix : Default
Muxing mode : Packed bitstream
Codec ID : XVID
Codec ID/Hint : XviD
Duration : 1h 24mn
Bit rate : 1 477 Kbps
Width : 720 pixels
Height : 304 pixels
Display aspect ratio : 2.35
Frame rate : 23.976 fps
Resolution : 24 bits
Colorimetry : 4:2:0
Scan type : Progressive
Bits/(Pixel*Frame) : 0.282
Stream size : 892 MiB (88%)
Writing library : XviD 50
Audio
Format : AC-3
Format/Info : Audio Coding 3
Codec ID : 2000
Duration : 1h 24mn
Bit rate mode : Constant
Bit rate : 192 Kbps
Channel(s) : 2 channels
Channel positions : L R
Sampling rate : 48.0 KHz
Stream size : 116 MiB (11%)
Alignment : Split accross interleaves
Interleave, duration : 42 ms (1.00 video frame)
Interleave, preload duration : 500 ms

Файл: 0,98 ГБ
Доступно только для пользователей

 
Форум » Разное со всего Империума » Фильмы » Кровавая ночь: легенда о Мэри Хэчет (HDRip) (2009, США, ужасы, триллер)
  • Страница 1 из 1
  • 1
Поиск:
Авторское право на игру и использованные в ней материалы принадлежат Мастеру Игрушек.
Любое использование материалов сайта возможно только с разрешения его администрации!
Все права защищены. © 2022 // design by Мастер Игрушек
* * * * *