Главная | Регистрация | Вход Приветствую Вас Бродяга | RSS
[ Новые сообщения · Участники · Правила форума · Поиск · RSS ]
  • Страница 1 из 1
  • 1
Форум » Советы Мастера » Покраска - Роспись » Plague Lord Festus. Master Class Todd Swanson (Miniature Mentor # 13)
Plague Lord Festus. Master Class Todd Swanson
MisterNurglДата: Пятница, 03.06.2011, 18:40 | Сообщение # 1
Великий нагибатор
Группа: Космодесант
Сообщений: 6217
Награды: 30
Репутация: 86
Статус: Offline


Miniature Menter с гордостью представляет вам Тодда Суонсона. В комплект также входит 65 страницы пошагового руководства по окраске этой миниатюры. Смотрите видео, читайте руководство и создавайте свои миниатюры на новом уровне.

Название: Plague Lord Festus. Master Class Todd Swanson
Серия: Miniature Mentor
Выпуск: 13
Тематика: Стендовый моделизм, роспись миниатюр
Тип материала: Видеоурок + руководство
Продолжительность: 03:20:15
Год выпуска: 2010
Язык: Английский
Перевод: Отсутствует

Качество: HDRip
Формат: MP4
Аудио кодек: AC3

Размер архива: 6.13 GB

















Доп. информация по аудио и видео:

General
Format : MPEG-4
Format profile : Base Media / Version 2
Codec ID : mp42
File size : 359 MiB
Duration : 12mn 3s
Overall bit rate : 4 163 Kbps
Encoded date : UTC 2010-03-10 06:39:10
Tagged date : UTC 2010-03-10 06:39:10
Video #1
ID : 1
Format : AVC
Format/Info : Advanced Video Codec
Format profile : Main@L4.2
Format settings, CABAC : Yes
Format settings, ReFrames : 4 frames
Codec ID : avc1
Codec ID/Info : Advanced Video Coding
Duration : 12mn 3s
Bit rate mode : Variable
Bit rate : 4 001 Kbps
Maximum bit rate : 8 000 Kbps
Width : 1 440 pixels
Height : 810 pixels
Display aspect ratio : 16:9
Frame rate mode : Constant
Frame rate : 29.970 fps
Standard : NTSC
Color space : YUV
Chroma subsampling : 4:2:0
Bit depth : 8 bits
Scan type : Progressive
Bits/(Pixel*Frame) : 0.114
Stream size : 345 MiB (96%)
Language : English
Encoded date : UTC 2010-03-10 06:39:10
Tagged date : UTC 2010-03-10 06:39:10
Audio #2
ID : 2
Format : AAC
Format/Info : Advanced Audio Codec
Format version : Version 4
Format profile : LC
Format settings, SBR : No
Codec ID : 40
Duration : 12mn 3s
Bit rate mode : Variable
Bit rate : 157 Kbps
Maximum bit rate : 253 Kbps
Channel(s) : 2 channels
Channel positions : Front: L R
Sampling rate : 48.0 KHz
Stream size : 13.6 MiB (4%)
Language : English
Encoded date : UTC 2010-03-10 06:39:10
Tagged date : UTC 2010-03-10 06:39:10

Доступно только для пользователей
 
MisterNurglДата: Воскресенье, 05.06.2011, 18:30 | Сообщение # 2
Великий нагибатор
Группа: Космодесант
Сообщений: 6217
Награды: 30
Репутация: 86
Статус: Offline
Plague Lord Festus (Руководство)



Для тех кому видео Plague Lord Festus. Master Class Todd Swanson не нужно, ибо есть в наличии, предлагается руководство по росписи Plague Lord Festus отдельным файлом.

Название: Plague Lord Festus. Master Class Todd Swanson
Издатель: Miniature Mentor
Вселенная: Warhammer 40 000
Редакция: приложение к 13 видео-выпуску
Качество: оригинал
Язык: английский
Страницы: 65
Файл: PDF (6,19 МБ)

Доступно только для пользователей
 
БумбашкаДата: Среда, 22.02.2012, 00:56 | Сообщение # 3
Брат-воин
Группа: Послушники
Сообщений: 4
Награды: 0
Репутация: 0
Статус: Offline
перезалейте плиз wacko
 
MisterNurglДата: Среда, 22.02.2012, 05:10 | Сообщение # 4
Великий нагибатор
Группа: Космодесант
Сообщений: 6217
Награды: 30
Репутация: 86
Статус: Offline
Quote (Бумбашка)
перезалейте плиз


Видео или руководство?
 
MisterNurglДата: Четверг, 23.02.2012, 12:20 | Сообщение # 5
Великий нагибатор
Группа: Космодесант
Сообщений: 6217
Награды: 30
Репутация: 86
Статус: Offline
Весь топик перезалит
 
Форум » Советы Мастера » Покраска - Роспись » Plague Lord Festus. Master Class Todd Swanson (Miniature Mentor # 13)
  • Страница 1 из 1
  • 1
Поиск:
Авторское право на игру и использованные в ней материалы принадлежат Мастеру Игрушек.
Любое использование материалов сайта возможно только с разрешения его администрации!
Все права защищены. © 2022 // design by Мастер Игрушек
* * * * *